Subcategories

John Coltrane - Soultrane (1958) {Rudy Van Gelder Remaster} [TR24][SM][OF]

Posted By: popsakov
John Coltrane - Soultrane (1958) {Rudy Van Gelder Remaster} [TR24][SM][OF]

John Coltrane - Soultrane (1958) {Rudy Van Gelder Remaster}
FLAC (Tracks) 24-bit/44.1kHz ~ 280 Mb | Digital Booklet | 39:49 min | RAR 5% Recovery
Jazz, Hard Bop | © 2006 Concord Music Group

Soultrane is one of the essential albums in John Coltrane’s career. Recorded during the first year of his Prestige contract, between his critical service in Thelonious Monk’s quartet and his return to the band of Miles Davis, it finds the tenor saxophonist displaying a new level of both technical and conceptual refinement, dispensing torrents of notes that annotator Ira Gitler famously dubbed "sheets of sound." The Red Garland Trio, a key component on many Coltrane recordings of the period, is at its eloquent best; and the program, with two compositions from the early days of modern jazz, two lesser-known standards, and a recently penned requiem for the late Ernie Henry, is ideal for verifying that Coltrane’s swiftly evolving approach was both innovative and comprehensive. Coltrane’s status as the primary influence on both saxophonists and musicians generally became undeniable after the release of this immortal performance.

Soultrane was John Coultrane's fourth album, originally released in 1958 on Prestige Records. Recorded February 7, 1958 at Van Gelder Studio, Hackensack, New Jersey.
***************

Track List:

01. Good Bait [12:08]
02. I Want To Talk About You [10:53]
03. You Say You Care [6:17]
04. Theme For Ernie [4:58]
05. Russian Lullaby [5:33]

Personnel:
John Coltrane - tenor saxophone
Red Garland - piano
Paul Chambers - bass
Art Taylor - drums

Rudy Van Gelder - Engineer, Remastering

All transfers were made from the analog master tapes to digital at 24-bit resolution.

foobar2000 1.2.6 / Dynamic Range Meter 1.1.1
log date: 2017-01-11 13:47:30

––––––––––––––––––––––––––––––––––––––––
Analyzed: John Coltrane, Red Garland, Paul Chambers, Art Taylor / Soultrane
––––––––––––––––––––––––––––––––––––––––

DR Peak RMS Duration Track
––––––––––––––––––––––––––––––––––––––––
DR10 -0.26 dB -12.98 dB 12:08 01-Good Bait
DR10 -1.12 dB -12.90 dB 10:53 02-I Want To Talk About You
DR10 -0.86 dB -12.91 dB 6:17 03-You Say You Care
DR10 -1.29 dB -13.59 dB 4:58 04-Theme For Ernie
DR10 -0.90 dB -12.54 dB 5:33 05-Russian Lullaby
––––––––––––––––––––––––––––––––––––––––

Number of tracks: 5
Official DR value: DR10

Samplerate: 44100 Hz
Channels: 2
Bits per sample: 24
Bitrate: 980 kbps
Codec: FLAC
================================================================================

John Coltrane - Soultrane (1958) {Rudy Van Gelder Remaster} [TR24][SM][OF]

All thanks go to the original customer

> Visit my blog <