Subcategories

John Coltrane - Lush Life (1961) {Rudy Van Gelder Remaster} [TR24][SM][OF]

Posted By: popsakov
John Coltrane - Lush Life (1961) {Rudy Van Gelder Remaster} [TR24][SM][OF]

John Coltrane - Lush Life (1961) {Rudy Van Gelder Remaster}
FLAC (Tracks) 24-bit/44.1kHz ~ 255 Mb | Digital Booklet | 36:42 min | RAR 5% Recovery
Jazz, Hard Bop | © 2006 Concord Music Group

Here is one of the musical giants of the 20th century, poised on the precipice of greatness. Between the spring of 1957 and the winter of 1958, during which time Lush Life was recorded, the music of tenor saxophonist John Coltrane (1926-1967) was developing in giant steps, thanks in great part to a six-month 1957 stint with Thelonious Monk that had much to do with sharpening Coltrane’s harmonic conception and torrential attack.

Lush Life contains Coltrane’s first recordings as sole leader, his initial date fronting a pianoless trio, and one of his first extended readings of a ballad, Billy Strayhorn’s resplendent title track. We also hear him at the helm of a quartet and quintet, featuring pianist Red Garland, with trumpeter Donald Byrd added to “Lush Life.” Coltrane and jazz would never be the same.

Recorded May 31, August 16, 1957, and January 10, 1958 at Van Gelder Studio in Hackensack, NJ.
***************


Track List:

01. Like Someone In Love [5:01]
02. I Love You [5:33]
03. Trane's Slo Blues [6:06]
04. Lush Life [14:00]
05. I Hear A Rhapsody [6:02]

Personnel:
John Coltrane - tenor saxophone
Earl May - bass
Arthur Taylor - drums
Donald Byrd - trumpet
Red Garland - piano
Paul Chambers - bass
Louis Hayes, Albert "Tootie" Heath - drums

Production:
Producer: Bob Weinstock
Recording and remastering engineer: Rudy Van Gelder

All transfers were made from the analog master tapes to digital at 24-bit resolution.

foobar2000 1.2.6 / Dynamic Range Meter 1.1.1
log date: 2017-01-10 20:24:10

––––––––––––––––––––––––––––––––––––––––
Analyzed: John Coltrane, Earl May, Art Taylor / Lush Life (1-3)
John Coltrane, Red Garland, Paul Chambers, Albert Heath / Lush Life (4)
John Coltrane, Red Garland, Paul Chambers, Donald Byrd, Louis Hayes / Lush Life (5)
––––––––––––––––––––––––––––––––––––––––

DR Peak RMS Duration Track
––––––––––––––––––––––––––––––––––––––––
DR10 -0.50 dB -12.02 dB 5:01 01-Like Someone In Love
DR9 -0.18 dB -9.99 dB 5:33 02-I Love You
DR10 -0.18 dB -12.02 dB 6:06 03-Trane's Slo Blues
DR11 -0.28 dB -12.81 dB 6:02 05-I Hear A Rhapsody
DR10 -0.23 dB -12.46 dB 14:00 04-Lush Life
––––––––––––––––––––––––––––––––––––––––

Number of tracks: 5
Official DR value: DR10

Samplerate: 44100 Hz
Channels: 2
Bits per sample: 24
Bitrate: 874 kbps
Codec: FLAC
================================================================================

John Coltrane - Lush Life (1961) {Rudy Van Gelder Remaster} [TR24][SM][OF]

All thanks go to the original customer

> Visit my blog <