Subcategories

Green Day - Revolution Radio (2016) [TR24][OF]

Posted By: popsakov
Green Day - Revolution Radio (2016) [TR24][OF]

Green Day - Revolution Radio (2016){88-24}
FLAC (Tracks) 24-bit/88.2kHz ~ 996 Mb | Cover: Front PDF | 44:36 min | RAR 5% Recovery
Rock, Punk, Alternative | © 2016 Reprise Records

Green Day imploded after the December 2012 release of Tre, the final part of a triple-album project. The very unwieldiness of Uno, Dos, and Tre – all released in rapid succession in the autumn of 2012 – suggested that Green Day were perhaps suffering from a lack of focus, but the group wound up taking a forced hiatus once leader Billie Joe Armstrong entered rehab in the middle of the triple-album rollout. Given all this chaos, it's hard not to view 2016's Revolution Radio as a consolidation, a way for the band to shake off all distractions and get back to basics. Discarded alongside the mess and garage rock affectations that marked Uno, Dos, and Tre is any sense of concept at all – a marked departure from their work of the past 15 years. Green Day may no longer be writing rock operas, but despite a title that seems swiped from the Clash, Revolution Radio retains a sense of righteous indignation reminiscent of prime Who that the trio channeled on American Idiot and 21st Century Breakdown. Without a concept, the stabs at social significance sting a little harder – granted, Armstrong makes it impossible to miss the meaning of the anti-mass shooting "Bang Bang" or the self-explanatory "Troubled Times" – but this concentration on individual songs also shifts the focus back to how the band really can craft dynamic rock songs. Often, this means their best songs are the simplest – the heavy-booted swing of "Say Goodbye" or the frothy, clap-along "Youngblood" – but the mini-epic of "Forever Now" shows they've retained the flair for the dramatic that they developed on American Idiot. If Revolution Radio can seem a little too pat – the concluding ballad "Ordinary World" is a conscious callback to both "Good Riddance (Time of Your Life)" and "Wake Me When September Ends" – such discipline was needed after the ungainly sprawl of 2012. Here, Green Day have nothing more in mind than righting their ship, and that's precisely what they do.
~ Stephen Thomas Erlewine, All Music
***************

Track List:

01. Somewhere Now [4:09]
02. Bang Bang [3:25]
03. Revolution Radio [3:01]
04. Say Goodbye [3:39]
05. Outlaws [5:03]
06. Bouncing Off the Wall [2:40]
07. Still Breathing [3:45]
08. Youngblood [2:33]
09. Too Dumb to Die [3:24]
10. Troubled Times [3:05]
11. Forever Now [6:52]
12. Ordinary World [3:01]

foobar2000 1.2.6 / Dynamic Range Meter 1.1.1
log date: 2017-01-10 20:46:02

––––––––––––––––––––––––––––––––––––––––
Analyzed: Green Day / Revolution Radio
––––––––––––––––––––––––––––––––––––––––

DR Peak RMS Duration Track
––––––––––––––––––––––––––––––––––––––––
DR5 -0.02 dB -6.87 dB 4:09 01-Somewhere Now
DR4 -0.02 dB -5.15 dB 3:25 02-Bang Bang
DR5 -0.02 dB -5.96 dB 3:01 03-Revolution Radio
DR5 -0.02 dB -5.89 dB 3:39 04-Say Goodbye
DR5 -0.02 dB -7.16 dB 5:03 05-Outlaws
DR5 -0.02 dB -5.93 dB 2:40 06-Bouncing Off the Wall
DR4 -0.02 dB -6.73 dB 3:45 07-Still Breathing
DR4 -0.02 dB -6.06 dB 2:33 08-Youngblood
DR5 -0.02 dB -6.83 dB 3:24 09-Too Dumb to Die
DR4 -0.02 dB -5.49 dB 3:05 10-Troubled Times
DR5 -0.02 dB -5.61 dB 6:52 11-Forever Now
DR8 -2.11 dB -12.26 dB 3:01 12-Ordinary World
––––––––––––––––––––––––––––––––––––––––

Number of tracks: 12
Official DR value: DR5

Samplerate: 88200 Hz
Channels: 2
Bits per sample: 24
Bitrate: 2465 kbps
Codec: FLAC
================================================================================

All thanks go to the original customer

> Visit my blog <