Subcategories

Franz Schubert - Fritz Wunderlich, Hubert Giesen: Die Schone Mullerin · 3 Lieder (2016) [TR24][OF]

Posted By: popsakov
Franz Schubert - Fritz Wunderlich, Hubert Giesen: Die Schone Mullerin · 3 Lieder (2016) [TR24][OF]

Franz Schubert - Fritz Wunderlich, Hubert Giesen: Die Schone Mullerin · 3 Lieder (2016)
FLAC (Tracks) 24-bit/96.0kHz ~ 1,36 Gb | Digital Booklet | 01:11:46 | RAR 5% Recovery
Classical, Chamber, Vocal | © 2016 Deutsche Grammophon GmbH

Despite his premature death at age 35, Fritz Wunderlich was one of the great lyric tenors of the century, equally at home with Mozart's Magic Flute and Mahler's Das Lied von der Erde. Why, then, does Schubert's great song cycle about disappointed love so often elude him? Though he brings his usual vocal splendor and gratifying lyricism to the music in ways that few tenors can dream of, both Wunderlich and his accompanist have a strangely club-footed sense of rhythm. What should often be an intimate expression is extroverted and even labored. – David Patrick Stearns
***************

Track List:

01. Die schöne Müllerin, Op.25, D.795: 1. Das Wandern [3:08]
02. Die schöne Müllerin, Op.25, D.795: 2. Wohin? [2:29]
03. Die schöne Müllerin, Op.25, D.795: 3. Halt! [1:37]
04. Die schöne Müllerin, Op.25, D.795: 4. Danksagung an den Bach [2:08]
05. Die schöne Müllerin, Op.25, D.795: 5. Am Feierabend [2:39]
06. Die schöne Müllerin, Op.25, D.795: 6. Der Neugierige [3:46]
07. Die schöne Müllerin, Op.25, D.795: 7. Ungeduld [3:08]
08. Die schöne Müllerin, Op.25, D.795: 8. Morgengruß [4:08]
09. Die schöne Müllerin, Op.25, D.795: 9. Der Müllers Blumen [3:47]
10. Die schöne Müllerin, Op.25, D.795: 10. Tränenregen [4:21]
11. Die schöne Müllerin, Op.25, D.795: 11. Mein! [2:47]
12. Die schöne Müllerin, Op.25, D.795: 12. Pause [4:12]
13. Die schöne Müllerin, Op.25, D.795: 13. Mit dem grünen Lautenbande [2:36]
14. Die schöne Müllerin, Op.25, D.795: 14. Der Jäger [1:18]
15. Die schöne Müllerin, Op.25, D.795: 15. Eifersucht und Stolz [1:47]
16. Die schöne Müllerin, Op.25, D.795: 16. Die liebe Farbe [3:56]
17. Die schöne Müllerin, Op.25, D.795: 17. Die böse Farbe [2:21]
18. Die schöne Müllerin, Op.25, D.795: 18. Trockne Blumen [3:16]
19. Die schöne Müllerin, Op.25, D.795: 19. Der Müller und der Bach [3:46]
20. Die schöne Müllerin, Op.25, D.795: 20. Des Baches Wiegenlied [7:12]
21. Die Forelle, Op.32, D.550 [2:18]
22. Frühlingsglaube, D.686 [3:18]
23. Heidenröslein, Op.3/3, D.257 [1:48]

Personnel:
Fritz Wunderlich - tenor
Hubert Giesen - piano

Recorded at München: Hochschule für Musik, 11/1965 and Akademie der Wissenschaften, 7/1966

foobar2000 1.2.6 / Dynamic Range Meter 1.1.1
log date: 2017-01-11 22:04:49

––––––––––––––––––––––––––––––––––––––––
Analyzed: Fritz Wunderlich, Hubert Giesen / Schubert: Die schöne Müllerin + 3 Lieder
––––––––––––––––––––––––––––––––––––––––

DR Peak RMS Duration Track
––––––––––––––––––––––––––––––––––––––––
DR15 -3.70 dB -22.89 dB 3:08 01-Die schöne Müllerin, Op.25, D.795: 1. Das Wandern
DR14 -3.40 dB -21.78 dB 2:29 02-Die schöne Müllerin, Op.25, D.795: 2. Wohin?
DR12 -4.18 dB -20.93 dB 1:37 03-Die schöne Müllerin, Op.25, D.795: 3. Halt!
DR13 -2.79 dB -23.15 dB 2:08 04-Die schöne Müllerin, Op.25, D.795: 4. Danksagung an den Bach
DR13 -4.45 dB -21.50 dB 2:39 05-Die schöne Müllerin, Op.25, D.795: 5. Am Feierabend
DR15 -4.26 dB -24.34 dB 3:46 06-Die schöne Müllerin, Op.25, D.795: 6. Der Neugierige
DR12 -2.40 dB -18.93 dB 3:08 07-Die schöne Müllerin, Op.25, D.795: 7. Ungeduld
DR16 -3.79 dB -24.47 dB 4:08 08-Die schöne Müllerin, Op.25, D.795: 8. Morgengruß
DR15 -6.62 dB -25.44 dB 3:47 09-Die schöne Müllerin, Op.25, D.795: 9. Der Müllers Blumen
DR14 -6.98 dB -26.52 dB 4:21 10-Die schöne Müllerin, Op.25, D.795: 10. Tränenregen
DR13 -4.03 dB -21.35 dB 2:47 11-Die schöne Müllerin, Op.25, D.795: 11. Mein!
DR15 -3.71 dB -23.50 dB 4:12 12-Die schöne Müllerin, Op.25, D.795: 12. Pause
DR14 -3.82 dB -22.60 dB 2:36 13-Die schöne Müllerin, Op.25, D.795: 13. Mit dem grünen Lautenbande
DR12 -1.05 dB -18.27 dB 1:18 14-Die schöne Müllerin, Op.25, D.795: 14. Der Jäger
DR14 -1.01 dB -20.13 dB 1:47 15-Die schöne Müllerin, Op.25, D.795: 15. Eifersucht und Stolz
DR13 -5.31 dB -23.56 dB 3:56 16-Die schöne Müllerin, Op.25, D.795: 16. Die liebe Farbe
DR13 -3.63 dB -19.89 dB 2:21 17-Die schöne Müllerin, Op.25, D.795: 17. Die böse Farbe
DR12 -3.05 dB -21.30 dB 3:16 18-Die schöne Müllerin, Op.25, D.795: 18. Trockne Blumen
DR14 -5.82 dB -24.42 dB 3:46 19-Die schöne Müllerin, Op.25, D.795: 19. Der Müller und der Bach
DR13 -5.86 dB -23.82 dB 7:12 20-Die schöne Müllerin, Op.25, D.795: 20. Des Baches Wiegenlied
DR13 -4.88 dB -22.51 dB 2:18 21-Die Forelle, Op.32, D.550
DR14 -3.13 dB -22.03 dB 3:18 22-Frühlingsglaube, D.686
DR15 -4.08 dB -22.91 dB 1:48 23-Heidenröslein, Op.3/3, D.257
––––––––––––––––––––––––––––––––––––––––

Number of tracks: 23
Official DR value: DR14

Samplerate: 96000 Hz
Channels: 2
Bits per sample: 24
Bitrate: 2566 kbps
Codec: FLAC
================================================================================

Franz Schubert - Fritz Wunderlich, Hubert Giesen: Die Schone Mullerin · 3 Lieder (2016) [TR24][OF]

All thanks go to the original customer

> Visit my blog <