Subcategories

Eric Church - Mr. Misunderstood (2015) [TR24][OF]

Posted By: popsakov
Eric Church - Mr. Misunderstood (2015) [TR24][OF]

Eric Church - Mr. Misunderstood (2015)
FLAC (Tracks) 24-bit/48.0kHz ~ 512 Mb | Cover: Front PDF | 38:41 min | RAR 5% Recovery
Country, Country Rock, Southern Rock | © 2016 EMI Music Nashville

Arriving after the deliberately overblown The Outsiders – an outlaw album pumped up on steroids, gaining its resonance through its slow songs – Mr. Misunderstood feels like a correction: a swift, modest album shorn of excess, released without an iota of pre-release hype. Devoid of the arena rock feints that dogged The Outsiders – there are no two-part metallic jams, no salutations to damn rock & roll – Mr. Misunderstood is hardly a back-to-basics move or a refutation of his over-amplified indulgences. Rather, this 2015 record pulls together the strands Church left hanging on his 2014 set, never shuffling country and rock – or blues or soul, for that matter – into their own categories. Church creates his own Americana, pulling from the classic rock wallpapering Middle America and the modern country that runs through the sports bars of the suburbs, making nods to swamp funk and soul along the way, but when he tips his cap to Elvis Costello, Ray Wylie Hubbard, and Jeff Tweedy, it's as telling as the Jackson Pollock allusion a few lines later: where other country is provincial, Church embraces the world without repudiating his home. Certainly, there's a strong sense of family flowing throughout Mr. Misunderstood – he's married to a dream, but his mistress is music; he writes about one son, but puts another on the cover – but Church takes a cue from "Give Me Back My Hometown," favoring specificity over broad clichés. Take the title track, where he tells a tale that feels autobiographical but he's seeing himself within a teenage outsider stuck in the back of class: here, he opens the door upon the possibility that the rest of the songs on the record – the tales of heartbreak and longing, maybe even the stories of love and family – are characters, not confession. Either way, Church's songs are anchored with an authoritative sense of sentiment and place, and they're brought to life by the precise roar of the Eric Church Band. No longer overwhelming with sheer volume, they dig into the funk of "Chattanooga Lucy" and race their leader to the conclusion of "Mr. Misunderstood," but they shine by maintaining the mournful soul of "Round Here Buzz" or by building the tension of "Knives of New Orleans" or by keeping the Susan Tedeschi duet "Mixed Drinks About Feelings" at a sweet, sad simmer. Where The Outsiders was designed to dazzle, Mr. Misunderstood is built for the long haul: it settles into the soul, its pleasures immediate but also sustained.
~ Stephen Thomas Erlewine, All Music
***************

Track List:

01. Mr. Misunderstood [5:18]
02. Mistress Named Music [5:22]
03. Chattanooga Lucy [3:23]
04. Mixed Drinks About Feelings [3:00]
05. Knives Of New Orleans [4:02]
06. Round Here Buzz [3:35]
07. Kill A Word [3:20]
08. Holdin' My Own [3:56]
09. Record Year [3:00]
10. Three Year Old [3:45]

foobar2000 1.2.6 / Dynamic Range Meter 1.1.1
log date: 2017-01-10 19:17:05

––––––––––––––––––––––––––––––––––––––––
Analyzed: Eric Church / Mr. Misunderstood
––––––––––––––––––––––––––––––––––––––––

DR Peak RMS Duration Track
––––––––––––––––––––––––––––––––––––––––
DR8 0.00 dB -10.34 dB 5:18 01-Mr. Misunderstood
DR8 0.00 dB -12.36 dB 5:22 02-Mistress Named Music
DR7 0.00 dB -9.94 dB 3:23 03-Chattanooga Lucy
DR12 -0.46 dB -15.42 dB 3:00 04-Mixed Drinks About Feelings
DR8 0.00 dB -10.84 dB 4:02 05-Knives Of New Orleans
DR8 -0.87 dB -10.77 dB 3:35 06-Round Here Buzz
DR8 0.00 dB -10.00 dB 3:20 07-Kill A Word
DR10 -0.48 dB -13.50 dB 3:56 08-Holdin' My Own
DR8 0.00 dB -11.55 dB 3:00 09-Record Year
DR9 -0.82 dB -13.79 dB 3:45 10-Three Year Old
––––––––––––––––––––––––––––––––––––––––

Number of tracks: 10
Official DR value: DR9

Samplerate: 48000 Hz
Channels: 2
Bits per sample: 24
Bitrate: 1559 kbps
Codec: FLAC
================================================================================

Eric Church - Mr. Misunderstood (2015) [TR24][OF]

All thanks go to the original customer

> Visit my blog <