Dominique Pifarély Quartet - Tracé provisoire (2016)

Posted By: SERTiL
Dominique Pifarély Quartet - Tracé provisoire (2016)

Dominique Pifarély Quartet - Tracé provisoire
Jazz | FLAC (tracks) 24-bit/88.2 kHz | 63:32 min | 1.09 GB | Digital booklet
Label: ECM Records | Tracks: 08 | Rls.date: 2016

Dominique Pifarély's quartet, with long-time musical companions Chevillon and Merville and newer associate Antonin Rayon, provides a marvelous context for the full range of the French violinist's expression. Pifarély thrives in the unstable territory between improvisation and composition. His pieces here establish ideas, structural elements and themes – provisional traces – to encourage textural, lyrical and abstract improvising to develop energetically in the moment. The interplay amongst the players is consistently dynamic and engaging, and Pifarély is inspired to some of his finest soloing. Tracé Provisoire was recorded at Studios La Buissonne in the South of France in July 2015.

TRACKLIST
1. Le Peuple Effacé I 5:37
2. Tracé Provisoire I 7:45
3. Le Peuple Effacé II 7:09
4. Vague I 6:31
5. Le Regard De Lenz 9:26
6. Tracé Provisoire II 6:13
7. Tout A Déjà Commencé 13:34
8. Vague II 8:58

PERSONNEL
Dominique Pifarély (violin),
Antonin Rayon (piano),
Bruno Chevillon (double bass),
François Merville (drums).

foobar2000 1.3.7 / Замер динамического диапазона (DR) 1.1.1
Дата отчёта: 2017-01-08 18:21:57

––––––––––––––––––––––––––––––––––––––––
Анализ: Dominique Pifarély Quartet / Tracé provisoire
––––––––––––––––––––––––––––––––––––––––

DR Пики RMS Продолжительность трека
––––––––––––––––––––––––––––––––––––––––
DR13 -1.23 дБ -19.01 дБ 5:37 01-Le peuple effacé I
DR12 -1.20 дБ -19.16 дБ 7:45 02-Tracé provisoire I
DR13 -1.21 дБ -19.58 дБ 7:09 03-Le peuple effacé II
DR14 -3.37 дБ -24.12 дБ 6:32 04-Vague I
DR12 -1.22 дБ -16.93 дБ 9:26 05-Le regard de Lenz
DR16 -1.17 дБ -22.07 дБ 6:32 06-Tracé provisoire II
DR14 -1.20 дБ -18.76 дБ 13:34 07-Tout a déjà commencé
DR15 -3.86 дБ -25.09 дБ 6:58 08-Vague II
––––––––––––––––––––––––––––––––––––––––

Количество треков: 8
Реальные значения DR: DR14

Частота: 88200 Гц
Каналов: 2
Разрядность: 24
Битрейт: 2188 кбит/с
Кодек: FLAC
================================================================================


Thanks to the Original customer.
My Blog mp3, flac & HDtracks