Subcategories

Denis Matuev & Mariss Jansons - Rhapsody (2016) [TR24][OF]

Posted By: SERTiL
Denis Matuev & Mariss Jansons - Rhapsody (2016) [TR24][OF]

Denis Matuev & Mariss Jansons - Rhapsody
Classical | FLAC (tracks) 24-bit/48 kHz | 63:53 min | 625 MB | Digital booklet
Label: BR Klassik | Tracks: 08 | Rls.date: 2016

This latest CD from BR KLASSIK contains five great rhapsodies, devised and elaborated by very different composers from different regions, with a lot of imagination and local flavour. With his rhapsody "España" the Frenchman Emmanuel Chabrier focused on the Iberian music and folk music so popular at the time, as did his more famous compatriot Maurice Ravel with his "Rhapsodie espagnole", the four-movement structure of which still harks back to long-outdated symphonic forms. From the Hungarian-born Franz Liszt we have the famous "Hungarian Rhapsody" No. 2, and from the Romanian composer George Enescu the scarcely less famous and popular "Romanian Rhapsody". The American George Gershwin created what was probably the most famous example of the genre in the 20th century with his "Rhapsody in Blue" for piano and orchestra… The Symphonieorchester des Bayerischen Rundfunks under their chief conductor Mariss Jansons are a guarantee of outstanding interpretative quality for these large-scale rhapsodic musical works. The Russian pianist Denis Matusev – internationally famous ever since he won the Tchaikovsky Piano Competition in Moscow in 1998 – proves to be a sovereign and stylistically confident interpreter of George Gershwin’s concertante masterpiece, with its numerous jazz elements. The live recording of this concert was made in October 2015 in the Herkulessaal of the Munich Residenz.

TRACKLIST

Emmanuel Chabrier: España
01 - España

George Gershwin: Rhapsody in Blue (Arr. F. Grofé for Piano & Orchestra)
02 - Rhapsody in Blue (arr. F. Grofé for piano and orchestra)

George Enescu: 2 Romanian Rhapsodies, Op. 11
03 - No. 1 in A Major

Maurice Ravel: Rapsodie espagnole, M. 54
04 - I. Prélude à la nuit
05 - II. Malagueña
06 - III. Habanera
07 - IV. Feria

Franz Liszt: Hungarian Rhapsodies, S. 244
08 - No. 2 in C-Sharp Minor (arr. K. Müller-Berghaus for orchestra)

foobar2000 1.3.7 / Замер динамического диапазона (DR) 1.1.1
Дата отчёта: 2017-01-11 19:41:27

––––––––––––––––––––––––––––––––––––––––
Анализ: Ferde Grofé/Denis Matsuev/Symphonieorchester des Bayerischen Rundfunks / Rhapsody (1)
K. Müller-Berghaus/Symphonieorchester des Bayerischen Rundfunks / Rhapsody (2)
Symphonieorchester des Bayerischen Rundfunks / Rhapsody (3-8)
––––––––––––––––––––––––––––––––––––––––

DR Пики RMS Продолжительность трека
––––––––––––––––––––––––––––––––––––––––
DR12 -1.03 дБ -18.67 дБ 16:52 2-Rhapsody in Blue (arr. F. Grofé for piano and orchestra)
DR15 -1.03 дБ -20.90 дБ 11:11 8-Hungarian Rhapsodies, S. 244: No. 2 in C-Sharp Minor (arr. K. Müller-Berghaus for orchestra)
DR14 -1.03 дБ -19.59 дБ 7:01 1-España
DR14 -1.03 дБ -20.28 дБ 12:41 3-2 Romanian Rhapsodies, Op. 11: No. 1 in A Major
DR15 -1.03 дБ -27.99 дБ 4:27 4-Rapsodie espagnole, M. 54: I. Prélude à la nuit
DR16 -1.03 дБ -23.88 дБ 2:10 5-Rapsodie espagnole, M. 54: II. Malagueña
DR16 -8.76 дБ -30.56 дБ 2:41 6-Rapsodie espagnole, M. 54: III. Habanera
DR14 -1.03 дБ -21.29 дБ 6:53 7-Rapsodie espagnole, M. 54: IV. Feria
––––––––––––––––––––––––––––––––––––––––

Количество треков: 8
Реальные значения DR: DR15

Частота: 48000 Гц
Каналов: 2
Разрядность: 24
Битрейт: 1339 кбит/с
Кодек: FLAC
================================================================================


Thanks to the Original customer.