Christian Zacharias - W.A. Mozart Piano Concertos Vol.3 (2008) [SACD-R][OF]

Posted By: Discograf_man
Christian Zacharias - W.A. Mozart Piano Concertos Vol.3 (2008) [SACD-R][OF]

Christian Zacharias - W.A. Mozart Piano Concertos Vol.3 (2008) [SACD-R][OF]
Classical, Piano, Orchestral | SACD ISO: DST64 2.0, 5.1 > 1-bit/2.8224 MHz | Artwork | 3.14 GB
Label: MDG | Release Year: 2008

In this 3rd volume, Zacharias’ Mozart becomes essential, if not quintessential, in a universe for piano & concerto that is fascinating. The Concerto for Piano & Orchestra #17 in G major KV 453 dates from 1784, & inspired the musician Alfred Einstein to say: “In a friendly key are hidden many mysterious smiles & painful wounds – words cannot be found to describe the permanent irisation of feelings in the 1st movement, the passionate interiority of the 2nd.” The Concerto for Piano & Orchestra #19 in F major KV 459 was also composed in 1784 right after “the 4th of the 6 Quartets dedicated to Haydn”, states Mihel Parouty. Three days after finishing it on December 14, Mozart became a Freemason. Leading from the piano the Orchestre de Chambre de Lausanne to heights of subtlety, Christian Zacharias brings out a thousand colors from these eternal scores. With exemplary phrasing he opens the doors to a world that is often approached but rarely captured with such intelligence. It is true that Zacharias’ Mozart is rarely flamboyant, but he brings forth unique beauty that only the deaf cannot hear. He allows his musical discourse to breathe, a reminder of days when music had universal meaning. This is a Super Audio CD that eclipses all others.
Tracklist:
Concerto for Piano and Orchestra KV 453 in G major
1. Allegro
2. Andante
3. Allegretto
4. Finale. Presto
Concerto for Piano and Orchestra KV 456 in B flat major
5. Allegro vivace
6. Andante un poco sostenuto
7. Allegro vivace
Christian Zacharias - W.A. Mozart Piano Concertos Vol.3 (2008) [SACD-R][OF]

17301675[0x10800ab]: SACD-Ripper Version 0.36
17301675[0x10800ab]: config: 00 00 00 0c 00 00 00 00 ff 41 00 04 00 00 00 00
17301675[0x10800ab]: config: 00 00 00 00 00 00 00 00 00 00 00 00 00 00 00 00
17301675[0x10800ab]: config: 00 00 00 00 00 00 00 00 00 00 00 00 00 00 00 00
17301675[0x10800ab]: config: 00 00 00 00 00 00 00 00 00 00 00 00 00 00 00 00
17301675[0x10800ab]: device_info: 75 6e 6e 61 6d 65 5c 10 80 00 00 00 00 53 a0 00
17301675[0x10800ab]: device_info: 80 00 00 00 10 13 de 70 80 00 00 00 00 53 90 00
17301675[0x10800ab]: device_info: 00 00 00 00 00 00 00 00 00 00 00 00 00 18 37 b0
17301675[0x10800ab]: device_info: 00 00 08 00 00 00 00 01 00 01 01 00 00 00 00 01
17301675[0x10800ab]: disc inserted..
17301675[0x10800ab]: config: 00 00 00 0c 00 00 00 10 ff 41 01 04 00 00 00 00
17301675[0x10800ab]: config: 00 00 00 00 00 00 00 00 00 00 00 00 00 00 00 00
17301675[0x10800ab]: config: 00 00 00 00 00 00 00 00 00 00 00 00 00 00 00 00
17301675[0x10800ab]: config: 00 00 00 00 00 00 00 00 00 00 00 00 00 00 00 00
17301675[0x10800ab]: device_info: 75 6e 6e 61 6d 65 5c 10 80 00 00 00 00 53 a0 00
17301675[0x10800ab]: device_info: 80 00 00 00 10 13 de 70 80 00 00 00 00 53 90 00
17301675[0x10800ab]: device_info: 00 00 00 00 00 00 00 00 00 00 00 00 00 18 37 b0
17301675[0x10800ab]: device_info: 00 00 08 00 00 00 00 01 00 01 01 00 00 00 00 01
17301675[0x10800ab]: Album Title: Wolfgang Amadeus Mozart: Concertos for Piano and O
17301675[0x10800ab]: Album Artist: Christian Zacharias, Orchestre de Chambre de Lausa
17301675[0x10800ab]: Disc Version: 01.20
17301675[0x10800ab]: config: 00 00 00 0c 00 00 00 10 ff 41 01 04 00 00 00 00
17301675[0x10800ab]: config: 00 00 00 00 00 00 00 00 00 00 00 00 00 00 00 00
17301675[0x10800ab]: config: 00 00 00 00 00 00 00 00 00 00 00 00 00 00 00 00
17301675[0x10800ab]: config: 00 00 00 00 00 00 00 00 00 00 00 00 00 00 00 00
17301675[0x10800ab]: device_info: 75 6e 6e 61 6d 65 5c 10 80 00 00 00 00 53 a0 00
17301675[0x10800ab]: device_info: 80 00 00 00 10 13 de 70 80 00 00 00 00 53 90 00
17301675[0x10800ab]: device_info: 00 00 00 00 00 00 00 00 00 00 00 00 00 18 37 b0
17301675[0x10800ab]: device_info: 00 00 08 00 00 00 00 01 00 01 01 00 00 00 00 01
17301675[0x10800ab]: succeeded. raw_spu number is 0
17301675[0x10800ab]: succeeded. entry d0
17301675[0x10800ab]: Establishing the interrupt tag on the interrupt PPU thread.
17301675[0x10800ab]: ioctl_report_key1[45023901] 0
17301675[0x10800ab]: sac_exec_generate_key 0 c9 0
17301675[0x10800ab]: ioctl_send_key[2] c9 0
17301675[0x10800ab]: ioctl_report_key[2] c8 0
17301675[0x10800ab]: sac_exec_validate_key_1[0]
17301675[0x10800ab]: sac_exec_generate_key_2[ae] 0
17301675[0x10800ab]: ioctl_send_key[3] ae 0
17301675[0x10800ab]: ioctl_report_key[3] b0 0
17301675[0x10800ab]: sac_exec_validate_key_2[0]
17301675[0x10800ab]: ioctl_report_key[4] 30 0
17301675[0x10800ab]: sac_exec_validate_key_3[0]
17301675[0x10800ab]: ioctl_report_finish [0xff] 0
17301675[0x10800ab]: Queuing raw: /dev_usb003/Christian Zacharias, Orchestre de Chambre de Lausanne - Wolfgang Amadeus Mozart Concertos for Piano and Orchestra.iso, start_lsn: 0, length_lsn: 1587120

foobar2000 1.3.13 / Замер динамического диапазона (DR) 1.1.1
Дата отчёта: 2017-01-10 21:45:05

––––––––––––––––––––––––––––––––––––––––
Анализ: Christian Zacharias, Orchestre de Chambre de Lausanne / Wolfgang Amadeus Mozart: Concertos for Piano and Orchestra Vol. 3
––––––––––––––––––––––––––––––––––––––––

DR Пики RMS Продолжительность трека
––––––––––––––––––––––––––––––––––––––––
DR14 -9.21 дБ -32.35 дБ 11:43 01-Concerto for Piano and Orchestra KV 453 in G major - Allegro
DR15 -11.20 дБ -35.81 дБ 9:23 02-Concerto for Piano and Orchestra KV 453 in G major - Andante
DR14 -9.56 дБ -33.65 дБ 5:33 03-Concerto for Piano and Orchestra KV 453 in G major - Allegretto
DR13 -7.86 дБ -30.42 дБ 2:33 04-Concerto for Piano and Orchestra KV 453 in G major - Finale. Presto
DR14 -8.48 дБ -31.96 дБ 11:29 05-Concerto for Piano and Orchestra KV 456 in B flat major - Allegro vivace
DR15 -7.96 дБ -33.27 дБ 9:34 06-Concerto for Piano and Orchestra KV 456 in B flat major - Andante un poco sostenuto
DR14 -9.28 дБ -31.50 дБ 7:40 07-Concerto for Piano and Orchestra KV 456 in B flat major - Allegro vivace
––––––––––––––––––––––––––––––––––––––––

Количество треков: 7
Реальные значения DR: DR14

Частота: 2822400 Гц / Частота PCM: 44100 Гц
Каналов: 6
Разрядность: 24
Битрейт: 16934 кбит/с
Кодек: DST64
================================================================================

––––––––––––––––––––––––––––––––––––––––
Анализ: Christian Zacharias, Orchestre de Chambre de Lausanne / Wolfgang Amadeus Mozart: Concertos for Piano and Orchestra Vol. 3
––––––––––––––––––––––––––––––––––––––––

DR Пики RMS Продолжительность трека
––––––––––––––––––––––––––––––––––––––––
DR15 -9.21 дБ -28.87 дБ 11:43 01-Concerto for Piano and Orchestra KV 453 in G major - Allegro
DR15 -11.20 дБ -32.37 дБ 9:23 02-Concerto for Piano and Orchestra KV 453 in G major - Andante
DR15 -9.56 дБ -30.03 дБ 5:33 03-Concerto for Piano and Orchestra KV 453 in G major - Allegretto
DR13 -7.86 дБ -26.86 дБ 2:33 04-Concerto for Piano and Orchestra KV 453 in G major - Finale. Presto
DR14 -8.48 дБ -28.25 дБ 11:29 05-Concerto for Piano and Orchestra KV 456 in B flat major - Allegro vivace
DR16 -7.96 дБ -29.71 дБ 9:34 06-Concerto for Piano and Orchestra KV 456 in B flat major - Andante un poco sostenuto
DR13 -9.28 дБ -27.83 дБ 7:40 07-Concerto for Piano and Orchestra KV 456 in B flat major - Allegro vivace
––––––––––––––––––––––––––––––––––––––––

Количество треков: 7
Реальные значения DR: DR15

Частота: 2822400 Гц / Частота PCM: 44100 Гц
Каналов: 2
Разрядность: 24
Битрейт: 5645 кбит/с
Кодек: DST64
================================================================================

Thanks to the original customer