Subcategories

VA - Chesky Records - 30th Anniversary Collection: Complete Set 1986-2016 (2016)

Posted By: SERTiL
VA - Chesky Records - 30th Anniversary Collection: Complete Set 1986-2016 (2016)

VA - Chesky Records - 30th Anniversary Collection: Complete Set 1986-2016
Jazz | FLAC (tracks) 24-bit/88.2|96|192 kHz & 16-bit/44.1 kHz | 385:37 min | 7.33 GB | Digital booklet
Label: Chesky Records | Tracks: 72 | Rls.date: 2016

Right from the start Chesky Records had a sound. David Chesky set out to make “aural photographs” of each session, capturing as much of the sound of being there as the technology allowed, continually pushing it forward. Every note of every session was recorded “live,” there were no overdubs, no fixing it in the mix. What went down at the session, with some of the world’s greatest musicians, was in the CD, LP, or later on, high-resolution digital download.

Chesky mostly recorded in great sounding acoustic spaces, namely churches and concert halls, with the earliest sessions conducted in the legendary, and sorely missed, RCA/BMG studios in midtown Manhattan.

Every session presented unique challenges, but David Chesky and his engineers, first Bob Katz, then Miguel Kertsman, Barry Wolifson, and for the last decade or so, Nicholas Prout, continued to advance the state of the recording art. We hope you enjoy the music as much as we did recording it! - Steve Guttenberg

Source > HDtracks

01. Bucky Pizzarelli (featuring John Pizzarelli, Ed Laub) - Stompin' At The Savoy
02. Luiz Bonfá - Non-Stop To Brazil
03. John Pizzarelli - It Could Happen To You
04. Herbie Mann - Caminho de Casa: Pathway Home
05. Natasha - Born In Chicago
06. Clark Terry - Silly Samba [Clark Terry]
07. McCoy Tyner - Recorda Me
08. Bruce Dunlop - About Home
09. Kenny Rankin - Haven't We Met?
10. Tom Harrell - Suite Dreams
11. Red Rodney - Confirmation [Red Rodney]
12. Joseph Flummerfelt & Westminster Choir - Kyrie (From Requiem)
13. Peggy Lee - Why Don't You Do Right
14. Romero Lubambo & Raphael Rabello - Apanhei-Te Cavaquinho
15. Cephas & Wiggins - Mama Let Me Lay It On You
16. Fred Hersch - For All We Know
17. Rebecca Pidgeon - Spanish Harlem
18. Carlos Heredia - Chachipen - Bulerias
19. Oregon - The Silence of a Candle
20. Paquito D'Rivera - Portraits of Cuba
21. Phil Woods - Con Alma [Phil Woods]
22. Christy Baron - Got To Get You Into My Life
23. Sara K. - Brick House
24. Ana Caram - Meditation
25. Babatunde Olatunji - Love Drum Talk
26. Livingston Taylor - Isn't She Lovely
27. Dave's True Story - Sex Without Bodies
28. Carla Lother - Jaelish
29. The Coryells - Love And Happiness
30. The Conga Kings - Elube Chango
31. David Johansen and the Harry Smiths - Well, I've Been To Memphis
32. Clark Terry - Memories of You
33. Chuck Mangione - Peggy Hill
34. Lee Konitz - Skylark
35. Raul Jaurena - Saludos
36. Bucky Pizzarelli - Perdido
37. The Persuasions - Eight Days a Week
38. Carter, Cobb, Coleman, Stern - There Is No Greater Love
39. Rosa Passos NNN Ron Carter - Desafinado
40. Candido & Graciela - Cachita
41. David Chesky - The Girl From Guatemala
42. Larry Coryell, Badi Assad NNN John Abercrombie - After the Rain
43. Marta Gomez - Cielito Lindo
44. Hazeltine, Mraz, Drummond - Alone Together
45. Cobb, Jones, McBride - We'll Be Together Again
46. Valerie Joyce - Fever
47. Nicholas Payton/Bob Belden/Sam Yahel/Billy Drummond/John Hart - Witch Hunt
48. Monty Alexander - Again
49. Jen Chapin - You Haven't Done Nothin'
50. Jimmy Cobb Quartet - Every Time We Say Goodbye
51. John Hammond - Still a Fool
52. Lenny White, Jamey Haddad, Mark Sherman - Tranquility [SoundField]
53. Wycliffe Gordon - Avalon
54. Amber Rubarth - Full Moon in Paris
55. C.C. Colletti - In My Time Of Dying
56. The Conga Kings - Conga Descarga
57. Alexis Cole - St. Judy's Comet
58. Dave Liebman - Ceremony: Afternoon
59. Xiomara Laugart - Las Perlas de Tu Boca (Featuring Axel Tosca Laugart, Roman Lajara, Luis Quintero, Yunior Terry, Javier Porta & Gerardo Contino)
60. Jazz In The New Harmonic - Check Point Charlie
61. Kenny Barron & Mark Sherman - Afternoon in Paris
62. David Chesky, The Chelsea Symphony Orchestra & Yaniv Segal - Dora's Dance
63. Wallace Roney, Bob Belden, Oz Noy, Kevin Hays, Daryl Johns, Lenny White - Shhh/Peaceful
64. Mangue Sylla and The All-Star Drummers of Guinea - Ginafare
65. The New Appalachians - Wayfaring Stranger
66. Three's Company (Javon Jackson, Ron Carter & Billy Drummond) - For Toddlers Only
67. Noah Wall - Down by the Riverside
68. City Of The Sun - Everything
69. Melissa Menago - Airplane
70. Sam Yahel, Mike Moreno, Ari Hoenig, Seamus Blake - Breathe
71. John McEuen - Excitable Boy
72. Macy Gray - I Tried


foobar2000 1.3.7 / Замер динамического диапазона (DR) 1.1.1
Дата отчёта: 2016-12-03 12:35:28

––––––––––––––––––––––––––––––––––––––––
Анализ: Ana Caram / Chesky 30th Anniversary Collection: Complete Set (1986-2016) (1)
Bruce Dunlop / Chesky 30th Anniversary Collection: Complete Set (1986-2016) (2)
Cephas & Wiggins / Chesky 30th Anniversary Collection: Complete Set (1986-2016) (3)
Clark Terry / Chesky 30th Anniversary Collection: Complete Set (1986-2016) (4)
Joseph Flummerfelt & Westminster Choir / Chesky 30th Anniversary Collection: Complete Set (1986-2016) (5)
Kenny Rankin / Chesky 30th Anniversary Collection: Complete Set (1986-2016) (6)
Luiz Bonfá / Chesky 30th Anniversary Collection: Complete Set (1986-2016) (7)
Natasha / Chesky 30th Anniversary Collection: Complete Set (1986-2016) (8)
Peggy Lee / Chesky 30th Anniversary Collection: Complete Set (1986-2016) (9)
Phil Woods / Chesky 30th Anniversary Collection: Complete Set (1986-2016) (10)
Red Rodney / Chesky 30th Anniversary Collection: Complete Set (1986-2016) (11)
Romero Lubambo & Raphael Rabello / Chesky 30th Anniversary Collection: Complete Set (1986-2016) (12)
Tom Harrell / Chesky 30th Anniversary Collection: Complete Set (1986-2016) (13)
––––––––––––––––––––––––––––––––––––––––

DR Пики RMS Продолжительность трека
––––––––––––––––––––––––––––––––––––––––
DR13 -2.97 дБ -20.30 дБ 3:37 24-Meditation
DR13 -10.64 дБ -27.18 дБ 5:00 08-About Home
DR14 -11.01 дБ -27.65 дБ 3:08 15-Mama Let Me Lay It On You
DR15 0.00 дБ -18.02 дБ 9:00 06-Silly Samba [Clark Terry]
DR13 -7.26 дБ -27.36 дБ 4:00 12-Kyrie (From Requiem)
DR12 -4.54 дБ -20.33 дБ 3:04 09-Haven't We Met?
DR17 -7.41 дБ -30.40 дБ 3:11 02-Non-Stop To Brazil
DR13 0.00 дБ -14.87 дБ 7:10 05-Born In Chicago
DR17 -5.42 дБ -32.28 дБ 3:36 13-Why Don't You Do Right
DR17 -0.01 дБ -19.71 дБ 5:06 21-Con Alma [Phil Woods]
DR19 -4.31 дБ -27.12 дБ 6:18 11-Confirmation [Red Rodney]
DR14 -11.80 дБ -33.33 дБ 3:19 14-Apanhei-Te Cavaquinho
DR15 -3.05 дБ -21.63 дБ 5:44 10-Suite Dreams
––––––––––––––––––––––––––––––––––––––––

Количество треков: 13
Реальные значения DR: DR15

Частота: 44100 Гц
Каналов: 2
Разрядность: 16
Битрейт: 800 кбит/с
Кодек: FLAC
================================================================================

––––––––––––––––––––––––––––––––––––––––
Статистика для: 52-Tranquility [SoundField]
Количество сэмплов: 23902208
Продолжительность: 4:31
––––––––––––––––––––––––––––––––––––––––

Левый Правый

Пики: -18.81 дБ –- -19.23 дБ
Средний RMS: -42.71 дБ –- -41.89 дБ
DR канала: 16.89 дБ –- 16.38 дБ
––––––––––––––––––––––––––––––––––––––––

Реальные значения DR: DR17

Частота: 88200 Гц
Каналов: 2
Разрядность: 24
Битрейт: 2199 кбит/с
Кодек: FLAC
================================================================================
––––––––––––––––––––––––––––––––––––––––
Анализ: Alexis Cole / Chesky 30th Anniversary Collection: Complete Set (1986-2016) (1)
Amber Rubarth / Chesky 30th Anniversary Collection: Complete Set (1986-2016) (2)
Babatunde Olatunji / Chesky 30th Anniversary Collection: Complete Set (1986-2016) (3)
Bucky Pizzarelli (featuring John Pizzarelli, Ed Laub) / Chesky 30th Anniversary Collection: Complete Set (1986-2016) (4)
Bucky Pizzarelli / Chesky 30th Anniversary Collection: Complete Set (1986-2016) (5)
C.C. Colletti / Chesky 30th Anniversary Collection: Complete Set (1986-2016) (6)
Candido & Graciela / Chesky 30th Anniversary Collection: Complete Set (1986-2016) (7)
Carla Lother / Chesky 30th Anniversary Collection: Complete Set (1986-2016) (8)
Carlos Heredia / Chesky 30th Anniversary Collection: Complete Set (1986-2016) (9)
Carter, Cobb, Coleman, Stern / Chesky 30th Anniversary Collection: Complete Set (1986-2016) (10)
Christy Baron / Chesky 30th Anniversary Collection: Complete Set (1986-2016) (11)
Chuck Mangione / Chesky 30th Anniversary Collection: Complete Set (1986-2016) (12)
City Of The Sun / Chesky 30th Anniversary Collection: Complete Set (1986-2016) (13)
Clark Terry / Chesky 30th Anniversary Collection: Complete Set (1986-2016) (14)
Cobb, Jones, McBride / Chesky 30th Anniversary Collection: Complete Set (1986-2016) (15)
Dave Liebman / Chesky 30th Anniversary Collection: Complete Set (1986-2016) (16)
Dave's True Story / Chesky 30th Anniversary Collection: Complete Set (1986-2016) (17)
David Chesky, The Chelsea Symphony Orchestra & Yaniv Segal / Chesky 30th Anniversary Collection: Complete Set (1986-2016) (18)
David Chesky / Chesky 30th Anniversary Collection: Complete Set (1986-2016) (19)
David Johansen and the Harry Smiths / Chesky 30th Anniversary Collection: Complete Set (1986-2016) (20)
Fred Hersch / Chesky 30th Anniversary Collection: Complete Set (1986-2016) (21)
Hazeltine, Mraz, Drummond / Chesky 30th Anniversary Collection: Complete Set (1986-2016) (22)
Herbie Mann / Chesky 30th Anniversary Collection: Complete Set (1986-2016) (23)
Jazz In The New Harmonic / Chesky 30th Anniversary Collection: Complete Set (1986-2016) (24)
John Hammond / Chesky 30th Anniversary Collection: Complete Set (1986-2016) (25)
John McEuen / Chesky 30th Anniversary Collection: Complete Set (1986-2016) (26)
John Pizzarelli / Chesky 30th Anniversary Collection: Complete Set (1986-2016) (27)
Kenny Barron & Mark Sherman / Chesky 30th Anniversary Collection: Complete Set (1986-2016) (28)
Larry Coryell, Badi Assad NNN John Abercrombie / Chesky 30th Anniversary Collection: Complete Set (1986-2016) (29)
Lee Konitz / Chesky 30th Anniversary Collection: Complete Set (1986-2016) (30)
Livingston Taylor / Chesky 30th Anniversary Collection: Complete Set (1986-2016) (31)
Macy Gray / Chesky 30th Anniversary Collection: Complete Set (1986-2016) (32)
Mangue Sylla and The All-Star Drummers of Guinea / Chesky 30th Anniversary Collection: Complete Set (1986-2016) (33)
Marta Gomez / Chesky 30th Anniversary Collection: Complete Set (1986-2016) (34)
McCoy Tyner / Chesky 30th Anniversary Collection: Complete Set (1986-2016) (35)
Melissa Menago / Chesky 30th Anniversary Collection: Complete Set (1986-2016) (36)
Nicholas Payton/Bob Belden/Sam Yahel/Billy Drummond/John Hart / Chesky 30th Anniversary Collection: Complete Set (1986-2016) (37)
Noah Wall / Chesky 30th Anniversary Collection: Complete Set (1986-2016) (38)
Oregon / Chesky 30th Anniversary Collection: Complete Set (1986-2016) (39)
Paquito D'Rivera / Chesky 30th Anniversary Collection: Complete Set (1986-2016) (40)
Raul Jaurena / Chesky 30th Anniversary Collection: Complete Set (1986-2016) (41)
Rebecca Pidgeon / Chesky 30th Anniversary Collection: Complete Set (1986-2016) (42)
Rosa Passos NNN Ron Carter / Chesky 30th Anniversary Collection: Complete Set (1986-2016) (43)
Sam Yahel, Mike Moreno, Ari Hoenig, Seamus Blake / Chesky 30th Anniversary Collection: Complete Set (1986-2016) (44)
Sara K. / Chesky 30th Anniversary Collection: Complete Set (1986-2016) (45)
The Conga Kings / Chesky 30th Anniversary Collection: Complete Set (1986-2016) (46-47)
The Coryells / Chesky 30th Anniversary Collection: Complete Set (1986-2016) (48)
The New Appalachians / Chesky 30th Anniversary Collection: Complete Set (1986-2016) (49)
The Persuasions / Chesky 30th Anniversary Collection: Complete Set (1986-2016) (50)
Three's Company (Javon Jackson, Ron Carter & Billy Drummond) / Chesky 30th Anniversary Collection: Complete Set (1986-2016) (51)
Valerie Joyce / Chesky 30th Anniversary Collection: Complete Set (1986-2016) (52)
Wallace Roney, Bob Belden, Oz Noy, Kevin Hays, Daryl Johns, Lenny White / Chesky 30th Anniversary Collection: Complete Set (1986-2016) (53)
Wycliffe Gordon / Chesky 30th Anniversary Collection: Complete Set (1986-2016) (54)
Xiomara Laugart / Chesky 30th Anniversary Collection: Complete Set (1986-2016) (55)
––––––––––––––––––––––––––––––––––––––––

DR Пики RMS Продолжительность трека
––––––––––––––––––––––––––––––––––––––––
DR17 -0.32 дБ -19.61 дБ 3:03 57-St. Judy's Comet
DR14 -2.03 дБ -22.34 дБ 3:26 54-Full Moon in Paris
DR18 -0.39 дБ -24.50 дБ 9:08 25-Love Drum Talk
DR20 -1.08 дБ -25.05 дБ 5:17 01-Stompin' At The Savoy
DR19 -0.83 дБ -26.76 дБ 6:36 36-Perdido
DR19 0.00 дБ -25.13 дБ 4:01 55-In My Time Of Dying
DR15 -0.01 дБ -17.20 дБ 6:12 40-Cachita
DR11 -0.37 дБ -15.19 дБ 5:04 28-Jaelish
DR13 -0.10 дБ -15.72 дБ 8:15 18-Chachipen - Bulerias
DR14 -0.01 дБ -18.82 дБ 9:02 38-There Is No Greater Love
DR15 -0.18 дБ -18.36 дБ 3:13 22-Got To Get You Into My Life
DR13 -0.02 дБ -15.91 дБ 6:10 33-Peggy Hill
DR14 -0.45 дБ -18.14 дБ 5:38 68-Everything
DR14 -0.25 дБ -20.98 дБ 4:52 32-Memories of You
DR16 -2.76 дБ -22.65 дБ 6:53 45-We'll Be Together Again
DR14 0.00 дБ -17.10 дБ 7:10 58-Ceremony: Afternoon
DR12 -0.43 дБ -15.12 дБ 3:42 27-Sex Without Bodies
DR15 -0.19 дБ -20.09 дБ 5:18 62-Dora's Dance
DR16 -0.02 дБ -21.84 дБ 7:33 41-The Girl From Guatemala
DR14 -0.06 дБ -17.10 дБ 3:58 31-Well, I've Been To Memphis
DR14 -0.67 дБ -20.08 дБ 7:13 16-For All We Know
DR15 -0.03 дБ -18.19 дБ 6:20 44-Alone Together
DR13 -3.92 дБ -19.77 дБ 6:35 04-Caminho de Casa: Pathway Home
DR15 -0.31 дБ -22.89 дБ 7:30 60-Check Point Charlie
DR11 0.00 дБ -15.34 дБ 4:56 51-Still a Fool
DR13 -0.42 дБ -15.30 дБ 2:53 71-Excitable Boy
DR14 -0.70 дБ -17.68 дБ 3:25 03-It Could Happen To You
DR13 -0.64 дБ -17.92 дБ 6:12 61-Afternoon in Paris
DR13 0.00 дБ -16.31 дБ 4:56 42-After the Rain
DR14 -0.05 дБ -17.45 дБ 7:20 34-Skylark
DR15 -1.20 дБ -21.35 дБ 4:37 26-Isn't She Lovely
DR13 -0.23 дБ -14.97 дБ 4:17 72-I Tried
DR18 -0.50 дБ -25.18 дБ 4:38 64-Ginafare
DR11 -5.08 дБ -22.21 дБ 3:57 43-Cielito Lindo
DR17 -0.94 дБ -23.12 дБ 9:48 07-Recorda Me
DR13 -0.13 дБ -17.91 дБ 3:32 69-Airplane
DR16 0.00 дБ -19.97 дБ 7:03 47-Witch Hunt
DR12 -0.55 дБ -15.91 дБ 2:42 67-Down by the Riverside
DR13 -2.51 дБ -20.17 дБ 5:19 19-The Silence of a Candle
DR16 -0.47 дБ -19.76 дБ 5:04 20-Portraits of Cuba
DR14 -2.77 дБ -20.87 дБ 3:28 35-Saludos
DR13 -0.12 дБ -16.66 дБ 3:43 17-Spanish Harlem
DR11 0.00 дБ -13.66 дБ 4:47 39-Desafinado
DR17 -0.01 дБ -22.15 дБ 6:29 70-Breathe
DR16 -0.22 дБ -20.53 дБ 6:00 23-Brick House
DR17 -0.33 дБ -20.05 дБ 4:24 30-Elube Chango
DR14 0.00 дБ -18.65 дБ 7:59 56-Conga Descarga
DR14 -0.07 дБ -17.20 дБ 5:24 29-Love And Happiness
DR14 -0.48 дБ -20.19 дБ 5:38 65-Wayfaring Stranger
DR12 -2.76 дБ -17.91 дБ 2:44 37-Eight Days a Week
DR13 -0.44 дБ -16.26 дБ 5:28 66-For Toddlers Only
DR12 -0.06 дБ -14.87 дБ 4:29 46-Fever
DR18 -0.50 дБ -21.69 дБ 11:21 63-Shhh/Peaceful
DR20 -4.73 дБ -30.55 дБ 4:52 53-Avalon
DR14 -1.65 дБ -18.63 дБ 4:22 59-Las Perlas de Tu Boca (Featuring Axel Tosca Laugart, Roman Lajara, Luis Quintero, Yunior Terry, Javier Porta & Gerardo Contino)
––––––––––––––––––––––––––––––––––––––––

Количество треков: 55
Реальные значения DR: DR15

Частота: 96000 Гц
Каналов: 2
Разрядность: 24
Битрейт: 2886 кбит/с
Кодек: FLAC
================================================================================

––––––––––––––––––––––––––––––––––––––––
Анализ: Jen Chapin / Chesky 30th Anniversary Collection: Complete Set (1986-2016) (1)
Jimmy Cobb Quartet / Chesky 30th Anniversary Collection: Complete Set (1986-2016) (2)
Monty Alexander / Chesky 30th Anniversary Collection: Complete Set (1986-2016) (3)
––––––––––––––––––––––––––––––––––––––––

DR Пики RMS Продолжительность трека
––––––––––––––––––––––––––––––––––––––––
DR14 0.00 дБ -16.60 дБ 3:44 49-You Haven't Done Nothin'
DR16 -1.01 дБ -22.58 дБ 6:47 50-Every Time We Say Goodbye
DR15 -0.08 дБ -22.31 дБ 4:56 48-Again
––––––––––––––––––––––––––––––––––––––––

Количество треков: 3
Реальные значения DR: DR15

Частота: 192000 Гц
Каналов: 2
Разрядность: 24
Битрейт: 5876 кбит/с
Кодек: FLAC
================================================================================


Thanks to the Original customer.