Subcategories

Charles Mingus - Tonight At Noon (1961/2011) [TR24][OF]

Posted By: SERTiL
Charles Mingus - Tonight At Noon (1961/2011) [TR24][OF]

Charles Mingus - Tonight At Noon
Jazz | FLAC (tracks) 24-bit/192 kHz | 38:22 min | 1.44 GB | Digital booklet
Label: Rhino/Atlantic | Tracks: 05 | Rls.date: 1961/2011

Tonight At Noon is an elegant compilation album from virtuoso bassist and accomplished pianist Charles Mingus. Comprised of studio outtakes from two of his most endearing releases, The Clown and Oh Yeah, the album features an array of legendary musicians including Shafi Hadi, Wade Legge, Roland Kirk, Booker Ervin, Doug Watkins and Jimmy Knepper. Mingus’ smooth bluesy piano playing and articulate melodies are rooted in this cohesive collection.

TRACKLIST
01. Tonight At Noon (6:00)
02. Invisible Lady (4:50)
03. 'Old' Blues For Walt's Torin (7:56)
04. Peggy's Blue Skylight (9:43)
05. Passions Of A Woman Loved (9:46)

PERSONNEL
Charles Mingus – bass, piano, vocals
Jimmy Knepper – trombone
Shafi Hadi (tracks 1 & 5), Booker Ervin (tracks 2–4) – tenor saxophone
Roland Kirk – tenor saxophone, manzello, stritch, siren, flute (tracks 2–4)
Wade Legge – piano (tracks 1 & 5)
Doug Watkins – bass (tracks 2–4)
Dannie Richmond – drums

foobar2000 1.3.7 / Замер динамического диапазона (DR) 1.1.1
Дата отчёта: 2017-01-11 13:07:11

––––––––––––––––––––––––––––––––––––––––
Анализ: Charles Mingus / Tonight At Noon
––––––––––––––––––––––––––––––––––––––––

DR Пики RMS Продолжительность трека
––––––––––––––––––––––––––––––––––––––––
DR11 -0.08 дБ -14.23 дБ 6:02 1-Tonight At Noon
DR11 -2.99 дБ -17.72 дБ 4:51 2-Invisible Lady
DR9 0.00 дБ -12.92 дБ 7:57 3-Old Blues For Walt's Torin
DR10 -0.80 дБ -14.19 дБ 9:47 4-Peggy's Blue Skylight
DR11 -0.10 дБ -14.57 дБ 9:47 5-Passions Of A Woman Loved
––––––––––––––––––––––––––––––––––––––––

Количество треков: 5
Реальные значения DR: DR10

Частота: 192000 Гц
Каналов: 2
Разрядность: 24
Битрейт: 5374 кбит/с
Кодек: FLAC
================================================================================


Thanks to the Original customer.