Subcategories

Barney Wilen Quartet - New York Romance (1994/2010) [TR24][OF]

Posted By: SERTiL
Barney Wilen Quartet - New York Romance (1994/2010) [TR24][OF]

Barney Wilen Quartet - New York Romance
Jazz | FLAC (tracks) 24-bit/96 kHz | 63:46 min | 1.45 GB | Front Cover
Label: Venus Records | Tracks: 09 | Rls.date: 1994/2010

Alternating between soprano, tenor and baritone saxes in this collection of straight-ahead jazz for the Japanese market, Barney Wilen refuses to be pinned down to a single tone quality or approach, even on the same instrument. Among other things, he mimics the lagging phrasing of Lady Day on "You've Changed" on soprano, "Blues Walk" bumps along agreeably on baritone while "Old Devil Moon" is sustained and humorous, and "Mack the Knife" is converted into a glacial smoky ballad with almost casual nonchalance. Throughout, Kenny Barron gets acres of well-turned solo space – it's practically his gig, too – and Ira Coleman (bass) and Lewis Nash (drums) provide crisp underpinning. The further one goes in this collection, the more interesting and less predictable it sounds. ~ Richard S. Ginell

TRACKIST
1 No Problem '94 9:25
2 Cry Me a River 8:32
3 Blues Walk 5:59
4 You've Changed 7:28
5 You'd Be So Nice to Come Home To 5:53
6 Mack the Knife 8:20
7 Don't Fence Me In 7:26
8 Old Devil Moon 6:21
9 I Will Say Goodbye 4:10

PERSONNEL
Barney Wilen - ss, ts, bars
Kenny Barron - p
Ira Coleman - b
Lewis Nash - d

foobar2000 1.3.7 / Замер динамического диапазона (DR) 1.1.1
Дата отчёта: 2016-11-21 15:42:06

––––––––––––––––––––––––––––––––––––––––
Анализ: Barney Wilen Quartet / New York Romance
––––––––––––––––––––––––––––––––––––––––

DR Пики RMS Продолжительность трека
––––––––––––––––––––––––––––––––––––––––
DR7 0.00 дБ -9.35 дБ 6:00 ?-Blues Walk"ブルース・ウォーク"
DR7 -0.10 дБ -10.14 дБ 8:34 ?-Cry Me A River"クライ・ミー・ア・リバー"
DR7 0.00 дБ -9.53 дБ 7:29 ?-Don't Fence Me In"ドント・フェンス・ミー・イン"
DR9 -0.13 дБ -11.85 дБ 4:12 ?-I Will Say Goodbye"アイ・ウィル・セイ・グッドバイ"
DR8 -0.18 дБ -10.73 дБ 8:20 ?-Mack The Knife"マック・ザ・ナイフ"
DR7 0.00 дБ -8.90 дБ 9:27 ?-No Problem"危険な関係のブルース"
DR7 0.00 дБ -8.44 дБ 6:23 ?-Old Devil Moon"オールド・デヴィル・ムーン"
DR7 0.00 дБ -8.78 дБ 5:53 ?-You'd Be So Nice To Come Home To"ユー・ド・ビー・ソー・ナイス・トゥ・カム・ホーム・トゥ"
DR7 -0.12 дБ -10.27 дБ 7:29 ?-You've Changed"ユーブ・チェンジド"
––––––––––––––––––––––––––––––––––––––––

Количество треков: 9
Реальные значения DR: DR8

Частота: 96000 Гц
Каналов: 2
Разрядность: 24
Битрейт: 3178 кбит/с
Кодек: FLAC
================================================================================


Thanks to the Original customer.