Subcategories

Lick Library - Learn to Play Chickenfoot (2 DVD)

Posted By: ParRus
Lick Library - Learn to Play Chickenfoot (2 DVD)

Lick Library - Learn to Play Chickenfoot
2xDVD5 | English | VIDEO_TS | 720 x 576 | MPEG2 ~4100 kbps | 25 fps
AC-3 192 Kbps 48.0 KHz | 2 channels | 2h 10mn | 8 GB
Genre: eLearning Video / Guitar lesson

Learn five tracks note for note, guitar lessons by Danny Gill This superb DVD teaches you some of the best riffs and solos from this American rock supergroup! Tracks include: Oh Yeah Down The Drain Soap On A Rope Big Foot Last Temptation Danny Gill is a former pupil of Joe Satriani, and co-author of the Musicians Institute Rock Lead Guitar series. His songs have appeared on numerous TV shows including 'The Osbournes' as well as motion picture soundtracks such as 'Insomnia' and 'Under Siege'.
Danny Gill is, without a doubt, the most loved tutor by our community. With an incredible array of DVDs and web lessons for LickLibrary covering a wide variety of topics all of which he covers with incredible detail, it's no wonder he carries as much respect as he does.

As an ex student of Joe Satriani, Danny rose quickly through the ranks and found himself as a teacher at the prestigious Musicians Institute in Holywood where he stayed for 13 years, during those years he had his first record deal with his first band Hericane Alice on Atlantic Records), appeared on MTV, toured the USA and opened for bands such as Whitesnake & Skid Row. He then went on to record 3 CDs with Medicine Wheel, got to tour in Japan before joining Speak No Evil with who he released 2 CDs with Universal Records and opened for bands such as Megadeth, Staind, and System of a Down.

Now residing in Sweden, Danny still has a strong impact on the guitar world with his series of MI books and his ever expanding catalogue of LickLibrary DVDs

also You can look my other last: Guitar Lessons-posts

General
Complete name : Rolling Stones Vol 2 Disc 1\VTS_07_1.VOB
Format : MPEG-PS
File size : 246 MiB
Duration : 7mn 50s
Overall bit rate mode : Variable
Overall bit rate : 4 379 Kbps

Video
ID : 224 (0xE0)
Format : MPEG Video
Format version : Version 2
Format profile : Main@Main
Format settings, BVOP : Yes
Format settings, Matrix : Custom
Format settings, GOP : M=3, N=15
Duration : 7mn 50s
Bit rate mode : Variable
Bit rate : 4 100 Kbps
Maximum bit rate : 7 000 Kbps
Width : 720 pixels
Height : 576 pixels
Display aspect ratio : 16:9
Frame rate : 25.000 fps
Standard : PAL
Color space : YUV
Chroma subsampling : 4:2:0
Bit depth : 8 bits
Scan type : Interlaced
Scan order : Bottom Field First
Compression mode : Lossy
Bits/(Pixel*Frame) : 0.395
Time code of first frame : 00:00:00:00
Time code source : Group of pictures header
Stream size : 230 MiB (94%)

Audio
ID : 189 (0xBD)-128 (0x80)
Format : AC-3
Format/Info : Audio Coding 3
Mode extension : CM (complete main)
Format settings, Endianness : Big
Muxing mode : DVD-Video
Duration : 7mn 50s
Bit rate mode : Constant
Bit rate : 192 Kbps
Channel(s) : 2 channels
Channel positions : Front: L R
Sampling rate : 48.0 KHz
Bit depth : 16 bits
Compression mode : Lossy
Stream size : 10.8 MiB (4%)

Menu
Screenshots

Lick Library - Learn to Play Chickenfoot (2 DVD)

Lick Library - Learn to Play Chickenfoot (2 DVD)

Lick Library - Learn to Play Chickenfoot (2 DVD)

Lick Library - Learn to Play Chickenfoot (2 DVD)

Lick Library - Learn to Play Chickenfoot (2 DVD)

Lick Library - Learn to Play Chickenfoot (2 DVD)

Lick Library - Learn to Play Chickenfoot (2 DVD)

Exclusive eLearning Videos ParRus-blogadd to bookmarks

Lick Library - Learn to Play Chickenfoot (2 DVD)