Subcategories

Lick Library - Killer Guitar [repost]

Posted By: ParRus
Lick Library - Killer Guitar [repost]

Lick Library - Killer Guitar
DVD5 | PAL 4:3 (720x576) VBR | MPEG2 ~4003 kbps | English: AC3, 192 kb/s (2 ch) | 2 hours | 2.34 GB
Genre: eLearning Video / Guitar lesson

One of the best players and teachers in the business, Dave Kilminster, allows you the opportunity to 'sit in' as he demonstrates four of the most essential techniques in the rock guitar arsenal. Get a close-up guide to the disciplines of speed-picking, legato and slurs, sweep-picking and two-handed tapping, and discover how to combine these progressive playing techniques to create unstoppable rock solos. All the lessons are broken down into easy to follow sections, with plenty of licks and musical exercises from outrageous to insane!
also You can look my other last: Guitar Lessons-posts

General
Complete name : VTS_05_1.VOB
Format : MPEG-PS
File size : 713 MiB
Duration : 23mn 16s
Overall bit rate mode : Variable
Overall bit rate : 4 281 Kbps

Video
ID : 224 (0xE0)
Format : MPEG Video
Format version : Version 2
Format profile : Main@Main
Format settings, BVOP : Yes
Format settings, Matrix : Custom
Duration : 23mn 16s
Bit rate mode : Variable
Bit rate : 4 003 Kbps
Maximum bit rate : 7 000 Kbps
Width : 720 pixels
Height : 576 pixels
Display aspect ratio : 4:3
Frame rate : 25.000 fps
Standard : PAL
Color space : YUV
Chroma subsampling : 4:2:0
Bit depth : 8 bits
Scan type : Interlaced
Scan order : Bottom Field First
Compression mode : Lossy
Bits/(Pixel*Frame) : 0.386
Stream size : 666 MiB (94%)

Audio
ID : 189 (0xBD)-128 (0x80)
Format : AC-3
Format/Info : Audio Coding 3
Mode extension : CM (complete main)
Format settings, Endianness : Big
Muxing mode : DVD-Video
Duration : 23mn 16s
Bit rate mode : Constant
Bit rate : 192 Kbps
Channel(s) : 2 channels
Channel positions : Front: L R
Sampling rate : 48.0 KHz
Bit depth : 16 bits
Compression mode : Lossy
Stream size : 32.0 MiB (4%)
Menu
Screenshots

Lick Library - Killer Guitar [repost]

Lick Library - Killer Guitar [repost]

Lick Library - Killer Guitar [repost]

Lick Library - Killer Guitar [repost]

Lick Library - Killer Guitar [repost]

Exclusive eLearning Videos ParRus-blogadd to bookmarks

Lick Library - Killer Guitar [repost]