Subcategories

Lick Library: Classic Albums - Appetite For Destruction (2016)

Posted By: ParRus
Lick Library: Classic Albums - Appetite For Destruction (2016)

Lick Library: Classic Albums - Appetite For Destruction
DVDRip | English | MP4 | 1920 x 1080 | AVC ~1500 kbps | 25 fps
AAC 128 Kbps 48.0 KHz | 2 channels | 04:07:25 | 2.82 GB
Genre: eLearning Video / Guitar lesson

Considered by many to be the greatest hard rock album of all time, there is no denying the significance of Guns Nā€™ Roses explosive debut album.
Chapters:

Introduction
+Welcome To The Jungle
-Intro & Pre Verse
-Verse & Chorus
-First Solo & Bridge
-Second Solo
+It's So Easy
-Rhythm Parts
-Solo & Outro
+Nightrain
-Rhythm Parts
-Solos & Outro
+Out ta Get Me
-Rhythm Parts
-Solo & Outro
+Mr. Brownstone
-Intro & Verse
-Chorus & Bridge
-Solo & Outro
+Paradise City
-Intro & Chorus
-Intro Solo & Verse
-Main Solo & Double Time Section
+My Michelle
-Rhythm Parts
-Solo & Outro
+Think About You
-Intro & Verse
-2nd Solo & chorus
-Main Solo & Outro
+Sweet Child O' Mine
-Intro
-Verse & Chorus
-1st & 2nd Solos
-Main Solo
+You're Crazy
-Main Riff & Pre Chorus
-Chorus & Interlude
-Solo
+Anything Goes
-Intro
-Verse & Chorus
-Solo & Breaks
+Rocket Queen
-Main Riff, Verse & Chorus
-Slide Solo
-Interlude & Third Verse
-Outro Solo
Outro

also You can look my other last: Guitar Lessons-posts

General
Complete name : 02 - Welcome to the Jungle - Intro & Pre Verse.mp4
Format : MPEG-4
Codec ID : M4V
File size : 55.6 MiB
Duration : 4mn 45s
Overall bit rate mode : Variable
Overall bit rate : 1 634 Kbps
Encoded date : UTC 2016-07-19 17:19:33
Tagged date : UTC 2016-07-19 17:19:33

Video
ID : 1
Format : AVC
Format/Info : Advanced Video Codec
Format profile : High@L4
Format settings, CABAC : Yes
Format settings, ReFrames : 4 frames
Codec ID : avc1
Codec ID/Info : Advanced Video Coding
Duration : 4mn 45s
Bit rate : 1 500 Kbps
Maximum bit rate : 2 808 Kbps
Width : 1 920 pixels
Height : 1 080 pixels
Display aspect ratio : 16:9
Frame rate mode : Constant
Frame rate : 25.000 fps
Color space : YUV
Chroma subsampling : 4:2:0
Bit depth : 8 bits
Scan type : Progressive
Bits/(Pixel*Frame) : 0.029
Stream size : 51.1 MiB (92%)
Writing library : x264 core 148 r2705kMod 3f5ed56
Encoding settings : cabac=1 / ref=4 / deblock=1:0:0 / analyse=0x3:0x113 / me=umh / subme=8 / psy=1 / fade_compensate=0.00 / psy_rd=1.00:0.00 / mixed_ref=1 / me_range=16 / chroma_me=1 / trellis=1 / 8x8dct=1 / cqm=0 / deadzone=21,11 / fast_pskip=1 / chroma_qp_offset=-2 / threads=12 / lookahead_threads=2 / sliced_threads=0 / nr=0 / decimate=1 / interlaced=0 / bluray_compat=0 / constrained_intra=0 / fgo=0 / bframes=3 / b_pyramid=2 / b_adapt=2 / b_bias=0 / direct=3 / weightb=1 / open_gop=0 / weightp=2 / keyint=250 / keyint_min=25 / scenecut=40 / intra_refresh=0 / rc_lookahead=50 / rc=2pass / mbtree=1 / bitrate=1500 / ratetol=1.0 / qcomp=0.60 / qpmin=0 / qpmax=69 / qpstep=4 / cplxblur=20.0 / qblur=0.5 / ip_ratio=1.40 / aq=1:1.00
Encoded date : UTC 2016-07-19 17:19:33
Tagged date : UTC 2016-07-19 17:19:34

Audio
ID : 2
Format : AAC
Format/Info : Advanced Audio Codec
Format profile : LC
Codec ID : 40
Duration : 4mn 45s
Bit rate mode : Variable
Bit rate : 128 Kbps
Maximum bit rate : 142 Kbps
Channel(s) : 2 channels
Channel positions : Front: L R
Sampling rate : 48.0 KHz
Compression mode : Lossy
Stream size : 4.34 MiB (8%)
Encoded date : UTC 2016-07-19 17:15:03
Tagged date : UTC 2016-07-19 17:19:34
Screenshots

Lick Library: Classic Albums - Appetite For Destruction (2016)

Lick Library: Classic Albums - Appetite For Destruction (2016)

Lick Library: Classic Albums - Appetite For Destruction (2016)

Lick Library: Classic Albums - Appetite For Destruction (2016)

Lick Library: Classic Albums - Appetite For Destruction (2016)

Lick Library: Classic Albums - Appetite For Destruction (2016)

Exclusive eLearning Videos ParRus-blog ā† add to bookmarks

Lick Library: Classic Albums - Appetite For Destruction (2016)