Subcategories

Java Programming 24-Hour Trainer [repost]

Posted By: ParRus
Java Programming 24-Hour Trainer [repost]

Java Programming 24-Hour Trainer (2011)
DVDRip | (.mov) in an interactive shell + PDF workbook | English | 800 x 600 | AVC ~286 kbps | 15.000 fps
AAC | 66.15 kbps | 44.1 KHz | 2 channels | 07:22:13 | 1.31 GB
Genre: Video Tutorial / Development, Programming, Java

As one of the most popular languages for building web applications, Java is often the first language that programmers learn to use. This self-paced book-and-video combination is an ideal introduction to the world of programming with Java. With it and the Java Development Kit, you can compile your first program. Assuming little or no programming experience, the easy-to-follow lessons are reinforced by step-by-step instructions on the DVD that demonstrate how to execute each task, allowing you to master Java programming quickly and seamlessly.
Java Programming 24-Hour Trainer:

Teaches you the variety of Java-related technologies that are most in demand

Covers the fundamental concepts, important terms, and best practices of programming with Java for real-world applications

Covers the latest release of Java EE 6 used for developing server-side applications

Walks you through writing and architecting practical Java applications

Includes instructions for preparing for technical job interviews

Wrox guides are crafted to make learning programming languages and technologies easier than you think. Written by programmers for programmers, they provide a structured, tutorial format that will guide you through all the techniques involved.

On the DVD

Don't just learn—do!
The lessons within the book are each accompanied by an instructional demonstration on the DVD—hours of video tutorials!
You'll learn to:

Understand Java basics

Program with abstract classes and interfaces

Develop UI with Java Swing

Handle errors

Explore concurrent execution

Read data from the Internet

Send e-mails with Java

Work with Application Server

Develop web applications with Servlets, JSP, and JSF

Design with EJB and messaging

Please see the DVD appendix for details and complete system requirements.

About the Author

Yakov Fain works as a software architect for Farata Systems, a company that provides consulting services in the field of development of enterprise applications. He has authored several technical books and many articles on software development. Sun Microsystems has nominated and awarded Mr. Fain with the title of Java Champion, which has been presented to only a hundred and fifty people in the world. He leads the Princeton Java Users Group.

Lesson 2: Eclipse IDE
Lesson 3: Object-Oriented Programming
Lesson 4: Class Methods
Lesson 5: Back to Java Basics
Lesson 6: Packages, Interfaces, and Encapsulation
Lesson 7: Programming with Abstract Classes and Interfaces
Lesson 8: Introducing the Graphic User Interface
Lesson 9: Event Handling in UI
Lesson 10: Introduction to Java Applets
Lesson 11: Developing a Tic-Tac-Toe Applet
Lesson 12: Developing a Ping-Pong Game
Lesson 13: Error Handling
Lesson 14: Introduction to Collections
Lesson 15: Introduction to Generics
Lesson 16: Working with Streams
Lesson 17: Java Serialization
Lesson 18: Network Programming
Lesson 19: Processing E-mails with Java
Lesson 20: Introduction to Multi-threading
Lesson 21: Digging Deeper into Concurrent Execution
Lesson 22: Working with Databases Using JDBC
Lesson 23: Swing with JTable
Lesson 24: Annotations and Reflection
Lesson 25: Remote Method Invocation
Lesson 26: Java EE 6 Overview
Lesson 27: Programming with Servlets
Lesson 28: JavaServer Pages
Lesson 29: Developing Web Applications with JSF
Lesson 30: Introducing JMS and MOM
Lesson 31: Introducing JNDI
Lesson 32: Introduction to Enterprise JavaBeans
Lesson 33: Introduction to the Java Persistence API
Lesson 34: Working with RESTful Web Services
Lesson 35: Introduction to Spring MVC Framework

General
Complete name : Lesson2.mov
Format : MPEG-4
Format profile : QuickTime
Codec ID : qt
File size : 44.4 MiB
Duration : 17mn 29s
Overall bit rate : 355 Kbps
Encoded date : UTC 2010-12-18 18:36:44
Tagged date : UTC 2010-12-18 18:52:41
Writing library : Apple QuickTime
com.apple.finalcutstudio.media.uuid : 0D388030-FF06-49BA-9F6A-1FC8471F2D07
Video #1
ID : 1
Format : AVC
Format/Info : Advanced Video Codec
Format profile : Main@L3.1
Format settings, CABAC : No
Format settings, ReFrames : 2 frames
Codec ID : avc1
Codec ID/Info : Advanced Video Coding
Duration : 17mn 29s
Bit rate mode : Variable
Bit rate : 286 Kbps
Width : 800 pixels
Height : 600 pixels
Display aspect ratio : 4:3
Frame rate mode : Constant
Frame rate : 15.000 fps
Resolution : 24 bits
Colorimetry : 4:2:0
Scan type : Progressive
Bits/(Pixel*Frame) : 0.040
Stream size : 35.8 MiB (81%)
Encoded date : UTC 2010-12-18 18:52:22
Tagged date : UTC 2010-12-18 18:52:41
colour_primaries : BT.601-6 525, BT.1358 525, BT.1700 NTSC, SMPTE 170M
transfer_characteristics : BT.709-5, BT.1361
matrix_coefficients : BT.601-6 525, BT.1358 525, BT.1700 NTSC, SMPTE 170M
Audio #2
ID : 2
Format : AAC
Format/Info : Advanced Audio Codec
Format version : Version 4
Format profile : LC
Format settings, SBR : No
Format settings, PS : Yes
Codec ID : 40
Duration : 17mn 29s
Bit rate mode : Constant
Bit rate : 66.15 Kbps
Nominal bit rate : 64.0 Kbps
Channel(s) : 2 channels
Channel positions : Front: L R
Sampling rate : 44.1 KHz
Resolution : 16 bits
Stream size : 8.11 MiB (18%)
Encoded date : UTC 2010-12-18 18:52:23
Tagged date : UTC 2010-12-18 18:52:41

PDF-book is included separately
ScreenShots

Java Programming 24-Hour Trainer [repost]

Java Programming 24-Hour Trainer [repost]

Java Programming 24-Hour Trainer [repost]

For more, Visit my AH-blog

no mirrors please, Follow The Rules